// //
Download The Time Team 2018 1080p WEB-DL DD 5.1 x264 [MW] Torrent | 1337x

The Time Team 2018 1080p WEB-DL DD 5.1 x264 [MW]

  • Category Movies
  • Type HD
  • Language English
  • Total size 1.4 GB
  • Uploaded By moviezworldz
  • Downloads 39
  • Last checked 2 weeks ago
  • Date uploaded 3 weeks ago
  • Seeders 4
  • Leechers 6

Infohash : EA32A2772F2E1B68DA2CD687AF451453D0B1005A





General
Format : Matroska
Format version : Version 4 / Version 2
File size : 1.41 GiB
Duration : 1 h 24 min
Overall bit rate : 2 376 kb/s

Video
ID : 1
Format : AVC
Format/Info : Advanced Video Codec
Format profile : [email protected]
Format settings : CABAC / 4 Ref Frames
Format settings, CABAC : Yes
Format settings, RefFrames : 4 frames
Codec ID : V_MPEG4/ISO/AVC
Duration : 1 h 24 min
Bit rate : 2 000 kb/s
Width : 1 916 pixels
Height : 802 pixels
Display aspect ratio : 2.40:1
Frame rate mode : Constant
Frame rate : 24.000 FPS
Color space : YUV
Chroma subsampling : 4:2:0
Bit depth : 8 bits
Scan type : Progressive
Bits/(Pixel*Frame) : 0.054
Stream size : 1.18 GiB (84%)
Writing library : x264 core 155 r2901 7d0ff22
Default : Yes
Forced : No

Audio
ID : 2
Format : AC-3
Format/Info : Audio Coding 3
Codec ID : A_AC3
Duration : 1 h 24 min
Bit rate mode : Constant
Bit rate : 384 kb/s
Channel(s) : 6 channels
Channel positions : Front: L C R, Side: L R, LFE
Sampling rate : 48.0 kHz
Frame rate : 31.250 FPS (1536 SPF)
Bit depth : 16 bits
Compression mode : Lossy
Stream size : 233 MiB (16%)
Language : English
Service kind : Complete Main
Default : Yes
Forced : No


Click To Enlarge Image







Files:

The Time Team 2018 1080p WEB-DL DD 5.1 x264 [MW]
  • The Time Team 2018 1080p WEB-DL DD 5.1 x264 [MW].mkv (1.4 GB)

There are currently no comments. Feel free to leave one :)

Code:

  • udp://tracker.coppersurfer.tk:6969/announce
  • udp://tracker.pirateparty.gr:6969/announce
  • udp://tracker.coppersurfer.tk:6969/announce
  • udp://tracker.tiny-vps.com:6969/announce
  • udp://9.rarbg.me:2740/announce
  • udp://9.rarbg.to:2790/announce
  • udp://public.popcorn-tracker.org:6969/announce
  • udp://tracker.vanitycore.co:6969/announce
  • udp://tracker.opentrackr.org:1337/announce
  • udp://open.stealth.si:80/announce