Download Mile 22 2018 Movies HDRip x264 5.1 with Sample ☻rDX☻ Torrent | 1337x

Mile 22 2018 Movies HDRip x264 5.1 with Sample ☻rDX☻

  • Category Movies
  • Type HD
  • Language English
  • Total size 921.7 MB
  • Uploaded By nehalpuja
  • Downloads 69
  • Last checked 2 weeks ago
  • Date uploaded 3 weeks ago
  • Seeders 11
  • Leechers 9

Infohash : 5DA642706DA0E0A9B171236115001989206EC0F5

Mile 22 2018 Movies HDRip x264 5.1 with Sample ☻rDX☻
===============================================================================================

SCREEN SHOTS:



or

https://iphonehosting.eu/2018/10/degree/1.html

File size : 913 MiB
Duration : 1 h 34 min
Overall bit rate mode : Constant
Overall bit rate : 1 353 kb/s
Movie name : Mile 22 2018 Movies HDRip x264 5.1 ☻rDX☻

Video
ID : 2
Format : AVC
Format/Info : Advanced Video Codec
Format profile : [email protected]
Format settings, CABAC : Yes
Format settings, ReFrames : 2 frames
Format settings, GOP : M=1, N=12
Codec ID : V_MPEG4/ISO/AVC
Duration : 1 h 34 min
Bit rate mode : Constant
Bit rate : 970 kb/s
Width : 720 pixels
Height : 304 pixels
Display aspect ratio : 2.35:1
Frame rate mode : Constant
Frame rate : 25.000 FPS
Color space : YUV
Chroma subsampling : 4:2:0
Bit depth : 8 bits
Scan type : Progressive
Bits/(Pixel*Frame) : 0.177
Stream size : 635 MiB (70%)
Title : ☻rDX☻
Default : Yes
Forced : No

Audio
ID : 1
Format : AC-3
Format/Info : Audio Coding 3
Mode extension : CM (complete main)
Format settings, Endianness : Big
Codec ID : A_AC3
Duration : 1 h 34 min
Bit rate mode : Constant
Bit rate : 384 kb/s
Channel(s) : 6 channels
Channel positions : Front: L C R, Side: L R, LFE
Sampling rate : 48.0 kHz
Frame rate : 31.250 FPS (1536 spf)
Bit depth : 16 bits
Compression mode : Lossy
Stream size : 259 MiB (28%)
Title : ☻rDX☻
Default : Yes
Forced : No

https://www.imdb.com/title/tt4560436

Files:

Mile 22 2018 Movies HDRip x264 5.1 with Sample ☻rDX☻
  • Sample ~ Mile 22 2018 Movies HDRip x264 5.1 ☻rDX☻.mkv (9.0 MB)
  • Mile 22 2018 Movies HDRip x264 5.1 ☻rDX☻.mkv (912.7 MB)

There are currently no comments. Feel free to leave one :)

Code:

  • udp://tracker.coppersurfer.tk:6969/announce
  • udp://tracker.leechers-paradise.org:6969/announce
  • udp://tracker.pirateparty.gr:6969/announce
  • udp://eddie4.nl:6969/announce
  • udp://tracker.zer0day.to:1337/announce
  • udp://9.rarbg.me:2710/announce
  • udp://9.rarbg.to:2710/announce
  • udp://public.popcorn-tracker.org:6969/announce
  • udp://p4p.arenabg.ch:1337/announce
  • udp://tracker.vanitycore.co:6969/announce
  • udp://ipv4.tracker.harry.lu:80/announce
  • udp://tracker.opentrackr.org:1337/announce
  • udp://p4p.arenabg.com:1337/announce
  • udp://shadowshq.yi.org:6969/announce