// //
Download Thor: Ragnarok (2017).720p.H264.italian.english.Ac3-5.1.sub.ita.eng.MIRCrew Torrent | 1337x

Thor: Ragnarok (2017).720p.H264.italian.english.Ac3-5.1.sub.ita.e...

  • Category Movies
  • Type HD
  • Language English
  • Total size 2.3 GB
  • Uploaded By robbyrs
  • Downloads 16730
  • Last checked 1 week ago
  • Date uploaded 4 months ago
  • Seeders 166
  • Leechers 8

Thor: Ragnarok

ActionAdventureFantasyScience Fiction

Thor is imprisoned on the other side of the universe and finds himself in a race against time to get back to Asgard to stop Ragnarok, the destruction of his homeworld and the end of Asgardian civilization, at the hands of an all-powerful new threat, the ruthless Hela.

Infohash : 301DFB3D71A44EE27B310315B4A3AA0C4FDA12E6

Thor: Ragnarok (2017).720p.H264.italian.english.Ac3-5.1.sub.ita.eng.MIRCrew


NO FOUND ONLY ORIGINAL RELEASE



My release is always in double track audio italian and Original audio
for select it use VLC or dvd player home
not use wmp

Thor Ragnarok (2017)

Qualità MIRCrew in HD 720p da 2.33 gb







Lingua originale inglese
Paese di produzione Stati Uniti d'America
Anno 2017
Durata 130 min
Rapporto 2.39:1
Genere azione, fantastico, avventura, fantascienza
Regia Taika Waititi
Soggetto Stan Lee, Larry Lieber e Jack Kirby (personaggio)
Sceneggiatura Eric Pearson, Craig Kyle, Christopher Yost
Produttore Kevin Feige
Produttore esecutivo Thomas M. Hammel, Stan Lee, Victoria Alonso, Louis D’Esposito, Brad Winderbaum
Casa di produzione Marvel Studios
Distribuzione (Italia) Walt Disney Studios Motion Pictures
Fotografia Javier Aguirresarobe
Montaggio Joel Negron, Zene Baker
Effetti speciali Jake Morrison
Musiche Mark Mothersbaugh
Scenografia Dan Hennah, Ra Vincent
Costumi Mayes C. Rubeo



Chris Hemsworth: Thor
Tom Hiddleston: Loki
Cate Blanchett: Hela
Idris Elba: Heimdall
Jeff Goldblum: Gran Maestro
Tessa Thompson: Valchiria
Karl Urban: Skurge
Mark Ruffalo: Bruce Banner / Hulk
Anthony Hopkins: Odino



Nei due anni successivi alla battaglia di Sokovia, Thor ha vagato per il cosmo alla ricerca delle Gemme dell'Infinito ed è ora prigioniero del demone Surtur. Quest'ultimo rivela a Thor che suo padre Odino non si trova più ad Asgard e che il regno degli dèi verrà presto distrutto da Ragnarök.................



Thor is imprisoned on the other side of the universe and finds himself in a race against time to get back to Asgard to stop Ragnarok, the destruction of his homeworld and the end of ...









[spoiler]
General
Unique ID : 198536863813762234148943176842613797607 (0x955CCF21B9D0E108919035CD5E6EB2E7)
Complete name : Thor Ragnarok (2017).720p.H264.ita.eng.sub.ita.eng-MIRCrew\Thor Ragnarok (2017).720p.H264.ita.eng.sub.ita.eng-MIRCrew.mkv
Format : Matroska
Format version : Version 2
File size : 2.33 GiB
Duration : 2h 10mn
Overall bit rate : 2 561 Kbps
Movie name : MIRCrew
Encoded date : UTC 2018-02-21 10:44:46
Writing application : mkvmerge v5.4.0 ('Piper') built on Mar 10 2012 13:34:39
Writing library : Lavf54.63.100
COPYRIGHT : robbyrs-iCN

Video
ID : 1
Format : AVC
Format/Info : Advanced Video Codec
Format profile : [email protected]
Format settings, CABAC : Yes
Format settings, ReFrames : 2 frames
Format settings, GOP : M=1, N=3
Codec ID : V_MPEG4/ISO/AVC
Duration : 2h 10mn
Bit rate : 1 800 Kbps
Width : 1 280 pixels
Height : 528 pixels
Display aspect ratio : 2.40:1
Frame rate mode : Variable
Frame rate : 23.976 fps
Color space : YUV
Chroma subsampling : 4:2:0
Bit depth : 8 bits
Scan type : Progressive
Bits/(Pixel*Frame) : 0.111
Stream size : 1.59 GiB (68%)
Title : Thor Ragnarok (2017).720p.H264.ita.eng.sub.ita.eng-MIRCrew
Writing library : x264 core 130 r2273
Encoding settings : cabac=1 / ref=2 / deblock=1:0:0 / analyse=0x1:0x131 / me=hex / subme=7 / psy=1 / psy_rd=1.00:0.00 / mixed_ref=0 / me_range=16 / chroma_me=1 / trellis=1 / 8x8dct=0 / cqm=0 / deadzone=21,11 / fast_pskip=1 / chroma_qp_offset=-2 / threads=3 / lookahead_threads=1 / sliced_threads=0 / nr=0 / decimate=1 / interlaced=0 / bluray_compat=0 / constrained_intra=0 / bframes=3 / b_pyramid=0 / b_adapt=1 / b_bias=0 / direct=3 / weightb=1 / open_gop=0 / weightp=2 / keyint=230 / keyint_min=23 / scenecut=40 / intra_refresh=0 / rc_lookahead=40 / rc=abr / mbtree=1 / bitrate=1800 / ratetol=1.0 / qcomp=0.60 / qpmin=10 / qpmax=69 / qpstep=4 / vbv_maxrate=24000 / vbv_bufsize=24000 / nal_hrd=none / ip_ratio=1.40 / aq=1:1.00
Language : Italian
Default : Yes
Forced : No
DURATION : 02:10:30.698000000
NUMBER_OF_FRAMES : 187749
NUMBER_OF_BYTES : 11653711031
_STATISTICS_WRITING_APP : mkvmerge v15.0.0 ('Duel with the Devil') 64-bit
_STATISTICS_WRITING_DATE_UTC : 2018-02-20 00:23:59
_STATISTICS_TAGS : BPS DURATION NUMBER_OF_FRAMES NUMBER_OF_BYTES

Audio #1
ID : 2
Format : AC-3
Format/Info : Audio Coding 3
Mode extension : CM (complete main)
Codec ID : A_AC3
Duration : 2h 10mn
Bit rate mode : Constant
Bit rate : 384 Kbps
Channel(s) : 6 channels
Channel positions : Front: L C R, Side: L R, LFE
Sampling rate : 48.0 KHz
Bit depth : 16 bits
Compression mode : Lossy
Delay relative to video : -5ms
Stream size : 358 MiB (15%)
Title : Ita Ac3 5.1
Language : Italian
Default : Yes
Forced : No
DURATION : 02:10:30.080000000
NUMBER_OF_FRAMES : 244690
NUMBER_OF_BYTES : 375843840
_STATISTICS_WRITING_APP : mkvmerge v15.0.0 ('Duel with the Devil') 64-bit
_STATISTICS_WRITING_DATE_UTC : 2018-02-20 00:23:59
_STATISTICS_TAGS : BPS DURATION NUMBER_OF_FRAMES NUMBER_OF_BYTES

Audio #2
ID : 3
Format : AC-3
Format/Info : Audio Coding 3
Mode extension : CM (complete main)
Codec ID : A_AC3
Duration : 2h 10mn
Bit rate mode : Constant
Bit rate : 384 Kbps
Channel(s) : 6 channels
Channel positions : Front: L C R, Side: L R, LFE
Sampling rate : 48.0 KHz
Bit depth : 16 bits
Compression mode : Lossy
Delay relative to video : -5ms
Stream size : 358 MiB (15%)
Title : Eng Ac3 5.1
Language : English
Default : No
Forced : No
DURATION : 02:10:30.699000000
NUMBER_OF_FRAMES : 734128
NUMBER_OF_BYTES : 1477065668
_STATISTICS_WRITING_APP : mkvmerge v15.0.0 ('Duel with the Devil') 64-bit
_STATISTICS_WRITING_DATE_UTC : 2018-02-20 00:23:59
_STATISTICS_TAGS : BPS DURATION NUMBER_OF_FRAMES NUMBER_OF_BYTES


[/spoiler]



Files:

Thor Ragnarok (2017).720p.H264.ita.eng.sub.ita.eng-MIRCrew
  • Thor Ragnarok (2017).720p.H264.ita.eng.sub.ita.eng-MIRCrew.eng.srt (137.4 KB)
  • Thor Ragnarok (2017).720p.H264.ita.eng.sub.ita.eng-MIRCrew.ita.srt (109.1 KB)
  • Thor Ragnarok (2017).720p.H264.ita.eng.sub.ita.eng-MIRCrew.mkv (2.3 GB)
  • Thor Ragnarok (2017).720p.H264.ita.eng.sub.ita.eng-MIRCrew.srt (0.0 KB)

Comments

Code:

  • udp://tracker.coppersurfer.tk:6969/announce
  • udp://tracker.opentrackr.org:1337/announce
  • udp://tracker.pirateparty.gr:6969/announce
  • udp://tracker.zer0day.to:1337/announce
  • udp://p4p.arenabg.com:1337/announce
  • udp://p4p.arenabg.ch:1337/announce
  • udp://eddie4.nl:6969/announce
  • udp://tracker.leechers-paradise.org:6969/announce
  • udp://9.rarbg.me:2740/announce
  • udp://9.rarbg.to:2740/announce
  • udp://9.rarbg.com:2710/announce
  • http://bigfoot1942.sektori.org:6969/announce
  • udp://tracker.internetwarriors.net:1337/announce
  • udp://oscar.reyesleon.xyz:6969/announce
  • udp://tracker.cyberia.is:6969/announce