// //
Download The Snowman 2017 1080p BluRay AC3 5.1 x264 ESub [Moviezworldz] Torrent | 1337x

The Snowman 2017 1080p BluRay AC3 5.1 x264 ESub [Moviezworldz]

  • Category Movies
  • Type HD
  • Language English
  • Total size 1.9 GB
  • Uploaded By moviezworldz
  • Downloads 313
  • Last checked 1 week ago
  • Date uploaded 3 months ago
  • Seeders 4
  • Leechers 3

The Snowman

CrimeDramaHorrorMysteryThriller

Detective Harry Hole investigates the disappearance of a woman whose pink scarf is found wrapped around an ominous looking snowman.

Infohash : 2DAF95D9B93A98EDF7556274DA2FE32C7C0A17B1





General
Format : Matroska
Format version : Version 4 / Version 2
File size : 1.88 GiB
Duration : 1 h 59 min
Overall bit rate : 2 253 kb/s

Video
ID : 1
Format : AVC
Format/Info : Advanced Video Codec
Format profile : [email protected]
Format settings : CABAC / 4 Ref Frames
Format settings, CABAC : Yes
Format settings, ReFrames : 4 frames
Codec ID : V_MPEG4/ISO/AVC
Duration : 1 h 59 min
Bit rate : 2 000 kb/s
Width : 1 920 pixels
Height : 1 036 pixels
Display aspect ratio : 1.85:1
Frame rate mode : Constant
Frame rate : 23.976 (24000/1001) FPS
Color space : YUV
Chroma subsampling : 4:2:0
Bit depth : 8 bits
Scan type : Progressive
Bits/(Pixel*Frame) : 0.042
Stream size : 1.66 GiB (89%)
Writing library : x264 core 148 r2708 86b7198
Default : Yes
Forced : No

Audio
ID : 2
Format : AC-3
Format/Info : Audio Coding 3
Codec ID : A_AC3
Duration : 1 h 59 min
Bit rate mode : Constant
Bit rate : 256 kb/s
Channel(s) : 6 channels
Channel positions : Front: L C R, Side: L R, LFE
Sampling rate : 48.0 kHz
Frame rate : 31.250 FPS (1536 SPF)
Bit depth : 16 bits
Compression mode : Lossy
Stream size : 218 MiB (11%)
Language : English
Service kind : Complete Main
Default : Yes
Forced : No

Text
ID : 3
Format : UTF-8
Codec ID : S_TEXT/UTF8
Codec ID/Info : UTF-8 Plain Text
Duration : 1 h 53 min
Bit rate : 42 b/s
Count of elements : 1163
Stream size : 35.4 KiB (0%)
Language : English
Default : Yes
Forced : No












Files:

The Snowman 2017 1080p BluRay AC3 5.1 x264 ESub
  • The Snowman 2017 1080p BluRay AC3 5.1 x264 ESub.mkv (1.9 GB)

There are currently no comments. Feel free to leave one :)

Code:

  • udp://tracker.pirateparty.gr:6969/announce
  • udp://tracker.leechers-paradise.org:6969/announce
  • udp://tracker.internetwarriors.net:1337/announce
  • udp://inferno.demonoid.pw:3391/announce
  • http://explodie.org:6969/announce
  • http://mgtracker.org:6969/announce
  • udp://tracker.coppersurfer.tk:6969/announce
  • udp://public.popcorn-tracker.org:6969/announce
  • udp://ipv4.tracker.harry.lu:80/announce
  • http://tracker.opentrackr.org/announce
  • udp://tracker.tiny-vps.com:6969/announce